<?xml version="1.0" standalone="no"?>
<!DOCTYPE svg PUBLIC "-//W3C//DTD SVG 1.1//EN" "http://www.w3.org/Graphics/SVG/1.1/DTD/svg11.dtd">
<svg xmlns="http://www.w3.org/2000/svg">
<metadata>Copyright (C) 2015 by original authors @ fontello.com</metadata>
<defs>
<font id="fontello" horiz-adv-x="1000" >
<font-face font-family="fontello" font-weight="400" font-stretch="normal" units-per-em="1000" ascent="850" descent="-150" />
<missing-glyph horiz-adv-x="1000" />
<glyph glyph-name="calculator" unicode="&#xe800;" d="m674 850h-563c-59 0-107-48-107-107v-782c0-59 48-107 107-107h563c59 0 107 48 107 107v782c0 59-48 107-107 107z m82-889c0-45-37-82-82-82h-563c-45 0-82 37-82 82v782c0 45 37 82 82 82h563c45 0 82-37 82-82v-782z m-572 564h417c33 0 60 24 60 55v109c0 30-27 55-60 55h-417c-33 0-60-25-60-55v-109c0-31 27-55 60-55z m-35 164c0 17 16 30 35 30h417c19 0 35-13 35-30v-109c0-17-16-30-35-30h-417c-19 0-35 13-35 30v109z m-27-376h148v128h-148v-128z m25 102h98v-77h-98v77z m171-102h148v128h-148v-128z m26 102h97v-77h-97v77z m171-102h148v128h-148v-128z m25 102h97v-77h-97v77z m-418-282h148v128h-148v-128z m25 103h98v-78h-98v78z m171-103h148v128h-148v-128z m26 103h97v-78h-97v78z m171-103h148v128h-148v-128z m25 103h97v-78h-97v78z m-418-281h148v128h-148v-128z m25 103h98v-77h-98v77z m171-103h148v128h-148v-128z m26 103h97v-77h-97v77z m171-103h148v128h-148v-128z m25 103h97v-77h-97v77z" horiz-adv-x="785" />
<glyph glyph-name="eye" unicode="&#xe801;" d="m500 630q92 0 177-25t141-62 99-77 63-71 20-45-20-44-63-71-99-78-141-62-177-25-177 25-141 62-99 78-63 71-20 44 20 45 63 71 99 77 141 62 177 25z m0-494q92 0 157 63t65 151q0 90-65 153t-157 63-157-63-65-153q0-88 65-151t157-63z m0 214q8-8 37-2t50 11 25-9q0-44-33-75t-79-31-78 31-32 75q0 46 32 77t78 31q14 0 10-23t-12-47 2-38z" horiz-adv-x="1000" />
<glyph glyph-name="arrow-left" unicode="&#xe802;" d="m233 1360l-384-465 384-466-33-26-406 492 406 492 33-27z" horiz-adv-x="459" />
<glyph glyph-name="arrow-right" unicode="&#xe803;" d="m-206 429l384 466-384 465 33 27 406-492-406-492-33 26z" horiz-adv-x="459" />
<glyph glyph-name="close" unicode="&#xe804;" d="m926-47c-17-18-46-19-64-2l-351 328-340-340c-18-18-46-18-64 0-18 18-18 47-1 64l338 338-349 325c-18 17-20 46-2 65 17 18 46 19 64 2l351-328 340 340c18 18 46 18 64 0 18-18 18-47 1-64l-338-338 349-325c18-17 20-46 2-65z" horiz-adv-x="1019" />
<glyph glyph-name="colour-menu" unicode="&#xe805;" d="m782 329l97 22-32 141-167-36 102-127z m61-134l-90 112-73-54 149-69 14 11z m-43 507l-33 142-250-58 33-142 250 58z m-142-217l182 43-33 142-250-62 101-123z m247-312l14 4-32 141-84-18 102-127z m-399 446l-90 112-200-156 91-112 199 156z m247-460l7 14-131 62-36-76h160z m-22 177l-91 113-145-113 149-69 87 69z m-402 98l25-29 109-51 159 124-90 112-203-156z m50-311h145v-254h-145v254z m84 188l-73-152h160l43 90-130 62z m98-188h144v-254h-144v254z m-298 282l-130 62-109-228 131-62 108 228z m479-282v-254h253v254h-253z m126-182c-28 0-54 26-54 55s26 54 54 54 55-25 55-54c0-33-26-55-55-55z m-851 182h145v-254h-145v254z m279 268l-109-229 8-3h152l80 170-131 62z m-98-268h145v-254h-145v254z" horiz-adv-x="1011" />
<glyph glyph-name="compare" unicode="&#xe806;" d="m440-140c-162 20-299 117-372 261-48 95-63 199-46 304 17 100 64 192 135 263 42 42 74 65 123 90 105 52 220 65 334 35 32-8 55-17 90-34l28-14 24 12c136 70 300 69 435-3 45-24 79-49 117-88 41-41 66-77 92-130 21-44 34-86 42-135 5-30 7-94 4-126-15-154-100-290-231-369-51-31-105-51-167-62-29-5-93-7-126-4-57 6-117 24-169 51l-21 11-21-11c-41-22-89-38-137-47-23-4-33-5-73-5-26 0-53 0-61 1l0 0z m113 54c38 6 81 18 117 35 10 5 12 6 10 8-2 1-10 8-19 16-110 94-174 240-168 388 5 127 55 241 143 329 12 12 27 25 33 30 7 6 13 10 13 11 0 2-46 21-68 27-47 14-86 19-135 18-90-3-171-32-245-89-21-16-58-53-73-73-75-96-106-213-90-332 21-149 122-281 259-339 71-30 148-40 223-29l0 0z m447-3c102 8 192 49 265 120 134 130 170 333 88 503-65 135-193 225-342 240-26 3-79 2-106-3-22-3-55-11-75-19-18-6-48-19-48-21 0-1 4-4 8-7 32-24 74-70 100-109 77-118 101-264 64-401-25-93-81-182-154-243-10-8-17-16-17-17 2-2 40-18 60-24 37-12 78-19 122-21 5 0 21 1 35 2l0 0z m-251 86c17 13 45 39 50 45 2 3 1 3-6 5-4 1-45 12-89 25-79 21-82 22-79 17 10-16 40-49 60-67 16-15 45-37 47-37 0 0 8 5 17 12l0 0z m111 126c6 10 11 20 11 21 0 2-310 87-311 86-2-2 15-50 21-64l5-10 126-34 125-35 6 8c3 4 10 17 17 28l0 0z m38 85c6 19 14 52 14 57 0 3-2 5-12 8-7 1-89 24-182 49-94 25-171 46-172 46-3 0-1-73 2-78 1-3 37-14 172-51 94-25 172-46 172-46 1 0 4 7 6 15l0 0z m21 146c-1 45-1 44-13 47-22 7-330 90-333 90-3 1-4-2-10-19-3-10-7-26-9-36l-4-16 184-50c100-28 184-51 185-51 1 0 1 14 0 35l0 0z m-21 123c-9 29-20 54-24 56-9 4-247 67-248 66-15-23-36-59-35-60 2-1 313-85 314-84 0 1-3 11-7 22l0 0z m-63 125c-22 30-55 63-85 86l-18 14-11-7c-16-12-37-31-48-42l-10-10 87-24c48-13 88-24 89-24 1 0-1 3-4 7l0 0z" horiz-adv-x="1463" />
<glyph glyph-name="download" unicode="&#xe807;" d="m852-100h-704c-22 0-40 18-40 40v231c0 22 18 40 40 40s40-18 40-40v-190h624v190c0 22 18 40 40 40s40-18 40-40v-231c0-22-18-40-40-40z m-154 480l-170-171c-4-4-10-8-16-10-1 0-3 0-4-1-2 0-5-1-8-1-7 0-13 2-18 5-2 1-3 1-4 2-1 1-2 2-3 3-1 0-2 1-3 2l-170 171c-16 16-16 42 0 57 16 16 41 16 57 0l101-102v425c0 22 18 40 40 40 22 0 40-18 40-40v-425l102 102c15 16 41 16 56 0 16-15 16-41 0-57z" horiz-adv-x="1000" />
<glyph glyph-name="email" unicode="&#xe808;" d="m920 650c-13 12-31 20-50 20h-740c-19 0-37-8-49-20-13-13-21-31-21-50v-520c0-19 8-37 21-49 12-13 30-21 49-21h740c19 0 37 8 50 21 12 12 20 30 20 49v520c0 19-8 37-20 50z m-40-534l-238 219 238 219v-438z m-750 494h740c3 0 5-1 7-3 0 0 0 0 1-1l-330-304c-10-9-25-14-39-14-14 0-28 4-38 13l-348 306c0 0 0 0 0 0 2 2 4 3 7 3z m-10-496v442l252-221-252-221z m10-44l272 238 42-37c19-16 42-23 65-23 23 0 48 8 66 25l38 35 257-238c0 0 0 0 0 0h-740z" horiz-adv-x="1000" />
<glyph glyph-name="inspiration-menu" unicode="&#xe809;" d="m272 545c0 53 43 97 97 97 53 0 97-44 97-97s-44-97-97-97c-55 0-97 43-97 97z m954 183v-749c0-24-19-43-42-43h-1034c-24 0-43 19-43 43v749c0 23 19 42 43 42h1034c23 0 42-19 42-42z m-1076-43v-413l50 50c33 34 87 34 120 0l136-136-208-207h60l492 491c22 21 50 34 81 34 30 0 60-13 81-34l223-224v439c0 24-19 43-42 43h-951c-24 0-42-19-42-43z" horiz-adv-x="1333" />
<glyph glyph-name="how-to-menu" unicode="&#xe80a;" d="m815 770h-45v40c0 22-18 40-40 40h-620v-190h620c22 0 40 18 40 40v40h45c3 0 5-2 5-5v-162c0-5-5-12-9-14l-304-135c-15-7-27-25-27-42v-98c-22-7-40-28-40-53v-326c0-30 28-55 55-55s55 25 55 55v326c0 25-18 46-40 53v98c0 5 5 12 9 14l304 135c15 7 27 25 27 42v162c0 19-16 35-35 35z m-300-861c0-11-10-20-21-20-11 0-20 9-20 20 0 11 9 21 20 21 11 0 21-10 21-21z" horiz-adv-x="1000" />
<glyph glyph-name="login" unicode="&#xe80b;" d="m851-138l-683 0c-93 0-168 76-168 169 0 58 69 93 91 104l277 122c22 4 31 11 31 42-25 29-122 151-122 255 0 159 106 288 239 288 133 0 240-129 240-286 0-104-102-228-127-257-2-33 5-38 25-44l272-96c47-17 91-79 91-126 2-95-73-171-166-171l0 0z m-470 351l-272-120c-31-16-65-40-65-64 0-69 56-124 124-124l683 0c68 0 124 55 124 124 0 28-33 73-62 84l-270 97c-51 18-60 51-56 98l0 6 5 5c2 2 119 135 119 233 0 130-88 241-195 241-106 0-195-111-195-244 0-97 115-230 115-230l5-7 0-6c4-54-13-80-60-93l0 0z" horiz-adv-x="1017" />
<glyph glyph-name="menu" unicode="&#xe80c;" d="m80 813h1605c15 0 28-12 28-27v-78c0-15-13-28-28-28h-1605c-16 0-28 13-28 28v78c0 15 12 27 28 27z m0-379h1605c15 0 28-13 28-28v-78c0-15-13-27-28-27h-1605c-16 0-28 12-28 27v78c0 15 12 28 28 28z m0-394h1605c15 0 28-13 28-28v-78c0-15-13-27-28-27h-1605c-16 0-28 12-28 27v78c0 15 12 28 28 28z" horiz-adv-x="1765" />
<glyph glyph-name="pdf" unicode="&#xe80d;" d="m355 574c-8 0-14-7-14-14v-416c0-8 6-14 14-14h301c8 0 14 6 14 14v313h-73c-24 0-44 19-44 44v73h-198z m-49-430v416c0 26 22 48 49 48h200 29c5-4 12-9 21-17 6-5 12-11 19-17 7-7 15-14 23-23 9-9 16-16 23-23 7-7 12-14 17-19 8-9 14-16 17-21v-30-314c0-26-21-48-48-48h-301c-27 0-49 22-49 48z m273 430v-73c0-10 8-19 18-19h73 6c-2 3-4 5-6 8-22 24-59 62-84 84-2 2-5 4-7 6v-6z m97-92h-6v8c2-3 4-5 6-8z m-90 92h-7v6c2-2 5-4 7-6z" horiz-adv-x="1000" />
<glyph glyph-name="play" unicode="&#xe80e;" d="m507-117c-258 0-467 210-467 467 0 257 209 467 467 467 257 0 466-210 466-467 0-257-209-467-466-467z m0 909c-244 0-442-198-442-442 0-244 198-442 442-442 243 0 441 198 441 442 0 244-198 442-441 442z m-56-577v253l174-126-174-127z" horiz-adv-x="1013" />
<glyph glyph-name="plus" unicode="&#xe80f;" d="m965 345h-459v-460h-17v460h-459v16h459v459h17v-459h459v-16z" horiz-adv-x="1000" />
<glyph glyph-name="print" unicode="&#xe810;" d="m748 572h-21v45c0 60-50 110-111 110h-234c-61 0-110-50-110-110v-45h-20c-60 0-110-50-110-111v-180c0-61 50-110 110-110h20v-144c0-30 24-54 54-54h346c30 0 55 24 55 54v144h21c61 0 110 49 110 110v180c0 61-49 111-110 111z m-437 45c0 39 32 71 71 71h234c40 0 72-32 72-71v-45h-377v45z m361-605h-346c-9 0-15 7-15 15v234h377v-70c0-1 0-1 0-1s0 0 0 0v-163c0-8-7-15-16-15z m147 269c0-39-32-71-71-71h-21v51h29c11 0 20 9 20 20s-9 19-20 19h-517c-11 0-20-8-20-19s9-20 20-20h33v-51h-20c-39 0-71 32-71 71v180c0 40 32 72 71 72h496c39 0 71-32 71-72v-180z m-485-103c0 11 9 20 20 20h289c11 0 20-9 20-20 0-11-9-19-20-19h-289c-11 0-20 8-20 19z m330-86c0-11-9-20-19-20h-290c-11 0-19 9-19 20 0 10 8 19 19 19h290c10 0 19-9 19-19z m111 377c0-11-9-20-20-20h-59c-11 0-19 9-19 20 0 11 8 20 19 20h59c11 0 20-9 20-20z" horiz-adv-x="1000" />
<glyph glyph-name="products-menu" unicode="&#xe811;" d="m682 260c-1 3-1 6-2 9 0 2-1 4-1 6-1 1-1 3-2 5-1 4-2 8-3 12-1 1-1 2-2 3-6 15-14 31-24 48-2 263-92 467-206 467-59 0-112-52-151-147-17-42-30-91-40-145l-241-241c-34-33 20-141 119-240 99-100 207-153 241-119l302 302c2 2 4 4 5 7 1 0 1 1 1 1 1 2 2 5 3 8 0 0 0 1 0 2 1 2 1 5 1 8 0 0 0 1 1 2 0 3-1 5-1 8 0 1 0 3 0 4z m-426 3c-33 0-60 27-60 59 0 26 17 48 40 56 0-15-1-30-1-45 0-12 10-21 21-21 11 0 20 9 20 21 0 15 1 30 1 45 22-9 38-30 38-56 0-32-26-59-59-59z m66 323c0 0-1 0-1 0-3-2-6-4-8-6l-9-8c7 27 16 53 25 76 32 77 73 121 113 121 72 0 150-144 163-365 0 0 0 0 0 0-1 2-3 4-5 6-3 4-6 7-9 11-2 2-4 4-6 7-3 3-6 7-10 11-1 2-3 4-5 6-5 5-11 11-16 16-12 12-23 22-35 32 0 1 0 1 0 1-1 0-2 1-2 2-7 5-13 10-19 15-1 1-1 2-2 2 0 0 0 0 0 0-6 5-12 9-17 14-1 0-1 0-1 0 0 0 0 0 0 0-12 9-23 17-35 24-1 1-2 1-3 2 0 0 0 0 0 0-4 2-8 5-11 7 0 0 0 0 0 0-2 1-3 2-5 2 0 0 0 0 0 0-5 3-10 6-16 9 0 0 0 0-1 0 0 0 0 0 0 0-4 2-9 4-13 6 0 0 0 0 0 0-1 1-2 1-3 1-4 2-7 3-11 4 0 0 0 0 0 1-1 0-3 1-4 1-4 1-7 2-10 3-1 0-2 0-3 1 0 0 0 0 0 0-8 1-15 2-21 2-1 0-2 0-3 0-1 0-1 0-2 0 0 0 0 0 0 0-6-1-11-2-15-4h0z m336-351c-3-4-10-4-15-4-36 0-113 38-197 123-47 46-84 96-105 139-20 40-21 65-14 73 4 3 10 4 15 4 36 0 113-39 197-123 7-6 13-13 19-19 1-1 1-2 2-3 5-6 10-11 15-17 1-1 1-1 2-2 5-6 10-12 15-18 0 0 0 0 0 0 5-7 10-13 15-20 13-18 24-35 33-52 2-3 3-6 5-9 19-40 21-65 13-72z m341-65c-3 30-19 95-79 140-63 46-121 42-151 39 42-54 35-113 20-148-8-17-11-36-8-55 6-60 60-104 121-97 60 6 104 60 97 121z" horiz-adv-x="1000" />
<glyph glyph-name="projects" unicode="&#xe812;" d="m886 683l0 91c0 33-38 49-146 61-79 10-185 15-298 15-112 0-217-5-297-15-108-12-145-28-145-61l0-846c0-33 37-49 145-62 80-9 185-14 298-14 112 0 218 5 298 14 107 13 145 29 145 62l0 285c25 2 50 9 74 22 54 30 84 71 91 123 18 131-128 287-165 325l0 0z m-444 114c164 0 287-11 351-23-64-12-187-23-351-23-164 0-287 11-350 23 63 12 186 23 350 23l0 0z m1-892c-212 0-357 18-394 33l0 791c25-6 50-11 86-15l0-475c0-15 10-27 25-27 15 0 25 12 25 27l0 469c12-1 24-1 24-2l0-154c0-15 10-26 25-26 15 0 25 11 25 26l0 151c61-3 118-5 180-5 113 0 222 5 302 15 40 4 71 10 96 16l0-460c-135 27-281 206-342 289 4 9 6 18 6 28 0 34-27 61-59 61-32 0-59-27-59-61 0-33 26-60 59-60 3 0 7 0 10 1 66-91 225-286 385-312l0-277c-37-15-182-33-394-33l0 0z m556 460c-5-35-26-62-64-83-16-8-36-13-49-16l0 338c50-64 123-164 113-239l0 0z" horiz-adv-x="1053" />
<glyph glyph-name="search" unicode="&#xe813;" d="m708 205c53 67 81 147 81 233 0 208-169 378-377 378s-378-170-378-378c0-208 170-377 378-377 87 0 169 28 236 83l268-270 61 60-269 271z m-296 564c182 0 330-149 330-331 0-182-148-330-330-330-182 0-331 148-331 330 0 182 148 331 331 331z" horiz-adv-x="1000" />
<glyph glyph-name="store-locator" unicode="&#xe814;" d="m395-117l-18 13c-76 53-260 202-337 426-47 138-13 286 89 390 71 71 164 110 265 110 100 0 193-39 264-110 104-104 138-252 89-390l-1-3c-86-242-294-396-336-425l-15-11 0 0z m0 874c-82 0-160-32-220-92-85-86-113-208-74-322 66-190 217-323 294-381 62 47 223 181 293 378l1 3c39 114 11 238-74 324-60 58-137 90-220 90l0 0z m0-457c-32 0-63 13-85 35-47 47-47 125 0 173 22 23 53 36 85 36 32 0 63-13 86-36 47-47 47-124 0-173-23-22-54-35-86-35l0 0z m0 181c-14 0-29-7-40-18-23-23-23-58 0-81 22-22 58-22 79 0 23 23 23 58 0 81-10 11-24 18-39 18l0 0z" horiz-adv-x="800" />
<glyph glyph-name="triangle-up" unicode="&#xe815;" d="m1542-61h-1417l708 837 709-837z" horiz-adv-x="1667" />
<glyph glyph-name="zoom" unicode="&#xe816;" d="m708 205c53 67 81 147 81 233 0 208-169 378-377 378s-378-170-378-378c0-208 170-377 378-377 87 0 169 28 236 83l268-270 61 60-269 271z m-296 564c182 0 330-149 330-331 0-182-148-330-330-330-182 0-331 148-331 330 0 182 148 331 331 331z m-265-331v16h255v233h16v-233h258v-16h-258v-280h-16v280h-255z" horiz-adv-x="1000" />
</font>
</defs>
</svg>
